<svg xmlns="http://www.w3.org/2000/svg">
<defs>
<font
   id="fontello"
   horiz-adv-x="1000"><font-face
     font-family="fontello"
     font-weight="400"
     font-stretch="normal"
     units-per-em="1000"
     ascent="850"
     descent="-150"
     id="font-face3169" /><missing-glyph
     horiz-adv-x="1000"
     id="missing-glyph3171" /><glyph
     glyph-name="chemical_wc"
     unicode=""
     d="M757 731l-71-47-25 39c-10 14-27 18-43 8l-115-76c-14-10-18-28-8-43l25-39-50-34c-29-16-31-19-54-33-28-16-42-25-68-41l-4-3 29-45v0c12 6 13 8 24 15 8 4 28 17 38 23l25-39 66-101c8-14 26-16 39-8l326 215c14 8 16 25 8 39l-105 158c-8 14-26 16-39 8z m-98-65l-111-72-12 18c-6 9-4 21 6 27l76 51c10 6 21 4 27-6l12-18z m-488-474l15-207h614l18 172 3 40 83 1 0 43-271-3-542-3v-22-21z m602-118c-94-64-477 87-561 8l9-74 546-1 9 74z m-178 305l-114 106 26 17 76-74-33 102 29 19 80-72-39 100 25 17 53-144-27-18-86 78 37-109-27-18z m197 196l29 7c6-15 6-31 2-43-4-11-14-23-27-31-18-12-34-13-53-10-18 4-33 16-47 36-14 21-19 41-16 58 4 20 14 33 32 45 15 10 31 14 47 12 9-2 17-6 27-14l-22-23c-5 6-11 8-19 9-8 0-14-1-22-5-9-6-13-14-15-26-2-10 2-23 12-37 9-16 21-25 31-27 10-4 19-2 29 4 6 4 12 9 14 17 2 8 2 16-2 28z"
     horiz-adv-x="1000"
     id="glyph3173" /><glyph
     glyph-name="accessible"
     unicode=""
     d="M660 293l98-232 99 45-15 31-47-17-107 246h-188v47h156v43h-156v48c0 30-23 53-53 53v0c-29 0-52-23-52-53v-138-75h265z m35-179c-11-24-27-45-45-63-43-43-101-68-166-68-64 0-123 25-166 68-43 43-68 102-68 166 0 65 25 123 68 166 10 10 22 20 36 30v-67c-32-33-53-78-53-127 0-51 21-96 53-129 33-33 78-52 128-52 51 0 96 21 129 52 26 26 43 57 49 92l31-64z m-248 607c37 0 67-29 67-66 0-37-30-67-67-67-37 0-66 30-66 67 0 37 29 66 66 66z"
     horiz-adv-x="1000"
     id="glyph3175" /><glyph
     glyph-name="animals_allowed"
     unicode=""
     d="M195 24l0 506 77-102 281 0 158 248 21-84 176-117c59-33 24-152-201-113l0-338-92 0 0 182c-93-30-261-24-336 0l0-182-86 0z m563 510c10 0 17-8 17-18 0-10-7-18-17-18-10 0-18 8-18 18 0 10 8 18 18 18z"
     horiz-adv-x="1000"
     id="glyph3177" /><glyph
     glyph-name="barbeques"
     unicode=""
     d="M600 229l29-135-254 0 27 135c30-14 63-22 98-22 35 0 70 8 100 24z m-106 508c-6 6-8 15-2 23 6 6 16 8 24 2 39-31 23-76 7-127-15-45-31-94-5-138 4-8 2-18-6-22-8-4-18-2-22 6-33 57-13 113 2 164 14 39 26 74 2 92z m63-102c-4 8 0 18 8 22 7 4 17 0 21-8 14-29 6-59 0-84-6-24-12-47 4-65 6-5 4-17-2-23-6-6-18-4-23 2-26 29-18 61-10 92 6 21 11 45 2 64z m-149 37c-6 6-8 16-2 22 6 6 16 8 22 2 33-30 21-71 8-114-10-31-22-64-6-85 6-8 4-18-4-22-8-6-18-4-22 4-23 33-9 74 2 113 10 33 20 65 2 80z m-43-424l-43-205c-25-3-45-27-45-52 0-30 24-55 55-55 29 0 55 23 55 55 0 19-10 35-26 45l6 27 268 0 27-127 41 0-66 314c43 32 74 77 86 129-26 6-71 12-80 16l80 0c11 0 23 10 23 23l0 0c0 12-10 24-23 24l-446 0c-11 0-23-10-23-24l0 0c0-11 8-21 19-23 10-61 45-113 92-147z m172 131c0 10 8 16 16 16 10 0 15-8 15-16l0-45c0-9-7-15-15-15l-110 0c-9 0-15 8-15 15l0 43c0 10 8 16 15 16 10 0 16-8 16-16l0-27 78 0 0 27z m-207-377c-6 0-12-6-12-11 0-6 6-12 12-12 6 0 12 6 12 12 0 5-6 11-12 11z"
     horiz-adv-x="1000"
     id="glyph3179" /><glyph
     glyph-name="caravans_traillers"
     unicode=""
     d="M904 161l-373 0c-4-16-11-28-21-39-16-16-37-26-61-26-23 0-45 10-60 26-16 15-26 37-26 60 0 24 10 45 26 61 15 15 37 25 60 25 24 0 45-10 61-25 12-12 19-26 23-39l20 0 0 224c0 18 13 31 31 31l68 0c18 0 32-13 32-31l0-224 48 0-5 224c0 39-24 69-53 90-45 31-108 45-147 45-86 0-166-39-232-96-76-64-133-154-158-244l0 0c0-2 0-4 0-8 0-4 0-6 2-8l0 0c0-1 2-1 4-1 2 0 4 0 5 0l206 0 0-41-206 0c-5 0-11 0-17 1-14 4-24 12-29 24l0 0c-6 10-6 19-6 27 0 8 2 14 2 20l0 0c27 95 90 193 170 263 74 65 164 106 259 106 47 0 118-16 170-53 39-27 69-68 71-123l5-226 131 0 0-43z m-431 191l-112 0c-5 0-11 6-11 12l0 82c0 6 6 11 11 11l112 0c6 0 11-5 11-11l0-82c0-6-5-12-11-12z m-53-201c8-8 20-12 31-12 12 0 24 4 31 12 8 8 12 19 12 31 0 12-4 24-12 31-7 8-19 12-31 12-11 0-23-4-31-12-8-7-12-19-12-31 0-12 4-23 12-31z"
     horiz-adv-x="1000"
     id="glyph3181" /><glyph
     glyph-name="chairs_table"
     unicode=""
     d="M742 495l-302 226-346-166 301-27-26-264-271 0c0-23 0-47 0-70l31 0 0-213 45 0 0 213 398 0 0-213 45 0 0 213 39 0 0 70-242 0 24 260 302-27z m-336-329l-17-185-45 0 17 185 45 0z m317-60l0-125-45 0 0 125-12 0 0 45 170 0 27 209c16-2 30-4 45-6-11-90-27-156-33-225-4-45 4-91 4-146l-45 0 0 125-111 0z"
     horiz-adv-x="1000"
     id="glyph3183" /><glyph
     glyph-name="fresh_water"
     unicode=""
     d="M450 717l14 7v14h41v-14c7-5 6-4 13-6 115 5 114-78 5-75-11 1-12-6-19-10 0-22-1 18 0-3-7-53 58-36 139-40 48-6 91-23 118-54 29-30 46-71 46-110v0-59h-92v59 0c0 15-7 34-19 46-12 14-29 23-50 23v0h-55c-58 0-57-1-102-1-48 0-41 1-107 1h-50v0c-29 0-45-7-55-19-9-14-14-35-14-61l-2-408h-94l3 408c1 45 10 88 34 118 26 34 66 55 128 55v0c37 2 147-6 137 41-1 20 0-18 0 2-5 3-10 7-16 12-114 1-106 68-3 74z m301-439c41-69 74-152 74-193 0-40-33-73-74-73-40 0-73 33-73 73 0 41 33 122 73 193z"
     horiz-adv-x="1000"
     id="glyph3185" /><glyph
     glyph-name="gray_water"
     unicode=""
     d="M770 157l-16-207-348 0-15 207-301 0 0 45 814 0 0-45-134 0z m-266 54l70 49-33 0 0 174-74 0 0-123-82 0c-4 14-10 23-20 33-13 14-31 22-50 22-20 0-38-8-51-22-14-13-22-31-22-51 0-19 8-37 22-50 13-14 31-22 51-22 19 0 37 8 50 22 8 7 16 19 18 33l84 0 0-16-33 0 70-49z m164 65l-94 0 0 35 94 0 0-35z m-441 0l-67 0c-17 0-29 2-39 8-10 7-23 17-27 35l-43 96-2 3 0 4 4 164c0 18 8 37 21 49 12 12 30 18 51 18l303 0 21 47 4 9 12 0 379 0 2 0 2 0c8-2 17-7 23-13 8-8 12-16 10-26l-6-50 0 0 0-2c-2-8-6-18-12-24-6-6-13-10-25-10l-148 0c-4 0-6-2-8-2 0 0 0 0 0-1 0 0 0 0 0-2 0-2 2-2 6-2l0 0 107 0 12 0 4-10 27-61 94-37 9-6-1-11-12-127c-2-12-4-24-10-34-8-9-20-17-39-17l-57 0c-4-12-9-24-17-33-14-14-32-22-51-22-20 0-37 8-51 22-13 13-21 31-21 50 0 20 8 38 21 51 14 14 31 22 51 22 19 0 37-8 51-22 10-10 15-19 19-33l57 0c8 0 10 2 12 4 2 2 4 8 4 16l9 115-90 35-5 2-2 6-26 54-97 0 0 0c-20 0-34 10-39 24-2 6-4 10-4 16 0 5 2 11 4 15 5 12 19 22 39 22l148 0c0 0 2 2 2 4l6 48c-2 2-4 2-6 4l-363 0-22-47-4-9-11 0-315 0c-12 0-19-4-27-10-6-6-10-16-10-24l-4-160 41-93 0-2c2-10 12-14 14-16 4-2 10-2 19-2l67 0 0-35z m505-8c6-6 16-10 26-10 10 0 19 4 25 10 6 6 10 16 10 25 0 10-4 20-10 26-6 6-15 10-25 10-10 0-20-4-26-10-5-6-9-16-9-26 0-9 4-19 9-25z m-443 0c6-6 16-10 26-10 9 0 19 4 25 10 6 6 10 16 10 25 0 10-4 20-10 26-6 6-16 10-25 10-10 0-20-4-26-10-6-6-10-16-10-26 0-9 4-19 10-25z m217-92c17-31 31-64 31-82 0-17-14-31-31-31-18 0-31 14-31 31 0 18 13 53 31 82z m-74-133c93-64 211 80 295 2l-10-74-279 0-8 72z"
     horiz-adv-x="1000"
     id="glyph3187" /><glyph
     glyph-name="long_vehicles"
     unicode=""
     d="M672 237l-285 0c-4-12-10-24-18-33-13-14-31-22-51-22-19 0-37 8-50 22-14 13-22 31-22 50 0 20 8 37 22 51 13 14 31 22 50 22 20 0 38-8 51-22 10-10 16-19 20-33l285 0 0-35z m-441 0l-67 0c-17 0-29 2-39 8-10 7-23 17-27 35l-43 95-2 4 0 4 4 164c0 18 8 37 21 49 12 12 29 18 51 18l303 0 21 47 4 9 12 0 379 0 2 0 2 0c7-2 17-7 23-13 8-8 12-16 10-26l-6-50 0 0 0-2c-2-8-6-18-12-24-6-6-13-10-25-10l-149 0c-3 0-5-2-7-2 0 0 0 0 0-2 0 0 0 0 0-1 0-2 2-2 5-2l0 0 108 0 12 0 4-10 27-61 94-37 9-6-2-11-11-127c-2-12-4-24-10-34-8-9-20-17-39-17l-57 0c-4-12-10-24-17-33-14-14-32-22-51-22-20 0-37 8-51 22-14 13-21 31-21 50 0 20 7 38 21 51 14 14 31 22 51 22 19 0 37-8 51-22 9-10 15-19 19-33l57 0c8 0 10 2 12 4 1 2 3 8 3 16l10 115-90 35-5 2-2 6-26 54-97 0 0 0c-20 0-34 10-40 24-2 6-3 10-3 15 0 6 1 12 3 16 6 12 20 22 40 22l148 0c0 0 2 2 2 3l6 49c-2 2-4 2-6 4l-363 0-22-47-4-9-11 0-315 0c-12 0-19-4-25-10-6-6-10-16-10-24l-4-160 41-94 0-1c2-10 12-14 14-16 4-2 9-2 19-2l67 0 0-35z m505-8c6-6 16-10 26-10 10 0 19 4 25 10 6 6 10 16 10 25 0 10-4 20-10 26-6 6-15 10-25 10-10 0-20-4-26-10-5-6-9-16-9-26 0-9 4-19 9-25z m-443 0c6-6 16-10 25-10 10 0 20 4 26 10 6 6 10 16 10 25 0 10-4 20-10 26-6 6-16 10-26 10-9 0-19-4-25-10-6-6-10-16-10-26 0-9 4-19 10-25z m70-191c-9 3-15 9-21 15-4 8-6 14-6 24 0 13 6 25 16 35 9 10 23 13 43 13 17 0 31-3 43-13 9-10 15-22 15-35 0-10-2-18-8-24-4-8-11-12-19-15 10-4 17-10 23-18 6-8 8-18 8-27 0-18-6-32-17-43-12-12-26-16-45-16-18 0-32 4-43 14-14 11-20 25-20 45 0 9 2 19 8 29 6 8 14 16 23 19z m8 37c0-8 2-14 6-18 4-4 10-6 16-6 7 0 11 2 15 6 4 4 6 10 6 18 0 7-2 11-6 15-4 4-10 6-15 6-8 0-12-2-18-6-4-4-6-9-6-15z m-4-82c0-10 2-18 8-24 6-6 12-8 20-8 7 0 13 2 19 8 6 6 8 14 8 24 0 9-2 15-8 21-6 6-12 8-19 8-10 0-16-4-20-10-4-6-6-14-6-19z m100 80l33 0 0-20c12 14 25 22 43 22 10 0 16-2 23-6 6-4 12-10 16-16 6 8 12 14 20 16 7 4 13 6 21 6 10 0 20-2 25-6 8-4 12-10 16-18 2-6 4-15 4-29l0-88-37 0 0 78c0 14-2 24-4 28-4 5-8 7-16 7-5 0-9-2-13-4-4-3-8-7-10-13-2-6-4-16-4-30l0-66-37 0 0 76c0 14 0 22-2 26-2 4-4 5-6 7-2 2-6 2-12 2-5 0-9-2-15-4-4-3-8-7-10-13-2-6-2-16-2-30l0-66-37 0 0 139z m-363-49l183 0 0-33-183 0 0-30-51 45 51 45 0-29z m847-16l-51-45 0 30-181 0 0 33 181 0 0 29 51-45z"
     horiz-adv-x="1000"
     id="glyph3189" /><glyph
     glyph-name="playground"
     unicode=""
     d="M357-17l43 543c-19 19-43 33-70 41l-70 0-12-121 139 0 0-28-141 0-14-134 143 0 0-28-144 0-14-134 146 0 0-28-148 0-12-113-39 0 65 641c3 48 31 78 60 89 12 4 24 6 35 6 12 0 24-4 33-10 24-13 41-41 38-78l-4-27 15 0 2 23c4 49 30 79 61 90 12 4 23 6 37 6 12 0 23-4 35-10 25-13 41-41 37-78l-6-41c53-33 88-125 125-224 51-135 108-286 215-315 8-2 14-8 14-15 0-10-8-16-16-16l-17 0 0-31-36 0 0 31-140 0 0-31-35 0 0 31-12 0 0 0c-2 0-2 0-4 0-82 21-111 129-144 246-22 78-45 162-84 223l-40-502-39 0z m176 615l4 33c2 20-6 35-17 41-6 4-12 6-18 6-6 0-14 0-20-2-17-6-33-25-35-56l-2-20 30 0 50 0c2 0 6 0 8 0z m-269 0l15 0 20 0c12 0 19 0 27 0l28 0 3 33c2 20-5 35-17 41-6 4-12 4-18 6-6 0-13 0-19-2-18-6-33-25-37-56l-2-20z"
     horiz-adv-x="1000"
     id="glyph3191" /><glyph
     glyph-name="power_hook"
     unicode=""
     d="M533 497l0-106c0-72-60-133-133-133l-23 0 0-135c0-39 27-64 63-76 15-6 31-7 46-7 16 0 34 1 47 7 35 12 61 37 61 76l0 243c0 68 35 113 78 132 18 8 35 12 55 12l0 0c17 0 37-4 54-12 43-19 78-64 78-132l0-321-56 0 0 321c0 43-20 68-45 80-10 4-20 6-31 6l0 0c-10 0-22-2-32-6-25-12-45-37-45-80l0-243c0-68-44-111-99-130-20-6-43-10-65-10-21 0-45 4-64 10-57 19-102 62-102 130l0 135-23 0c-72 0-133 61-133 133l0 106-6 0c-8 0-15 7-15 15l0 35c0 8 7 16 15 16l71 0 0 131c0 13 11 25 25 25l0 0c14 0 25-12 25-25l0-131 143 0 0 131c0 13 12 25 25 25l0 0c14 0 26-12 26-25l0-131 70 0c8 0 16-8 16-16l0-35c0-8-8-15-16-15l-6 0z"
     horiz-adv-x="1000"
     id="glyph3193" /><glyph
     glyph-name="reservations"
     unicode=""
     d="M191 504l631 0 0 43c0 8-4 16-9 22-6 6-14 10-22 10l-72 0 0 50 72 0c24 0 43-9 59-23 15-16 23-35 23-59l0-170 51 67 16-20-209-340-122 141 53 35 72-70 90 119 0 143-631 0 0-366c0-7 4-15 10-21l0 0c6-6 14-10 22-10l568 0c8 0 16 4 22 10l0 0c5 6 9 14 9 21l0 84 51 94 0-178c0-23-10-43-23-58l0 0c-16-16-36-24-59-24l-568 0c-24 0-43 10-59 24l0 0c-16 15-23 35-23 58l0 461c0 24 9 43 23 59 16 16 35 23 59 23l103 0 0 65 51 0 0-160-51 0 0 43-103 0c-8 0-16-4-22-10-6-6-10-14-10-22l0-43z m227 125l205 0 0 65 51 0 0-160-51 0 0 43-205 0 0 50z m250-240l107 0 0-92-107 0 0 92z m-145 0l108 0 0-92-108 0 0 92z m-144-164l107 0 0-92-107 0 0 92z m0 164l107 0 0-92-107 0 0 92z m-145-164l108 0 0-92-108 0 0 92z m0 164l108 0 0-92-108 0 0 92z"
     horiz-adv-x="1000"
     id="glyph3195" /><glyph
     glyph-name="rubbish"
     unicode=""
     d="M410 713l178 0c16 0 29-13 29-29l0-53 88 0c53 0 98-43 98-97l0 0-610 0 0 0c0 52 43 97 98 97l88 0 0 53c0 16 14 29 29 29z m-160-203l498 0-27-476c-2-26-22-47-47-47l-352 0c-25 0-45 21-47 47l-27 476z m231-82l39 0c7 0 13-6 13-13l0-366c0-8-6-13-13-13l-39 0c-8 0-14 5-14 13l0 366c0 7 6 13 14 13z m181 0l-29 0c-8 0-14-6-14-13l-13-364c0-8 5-13 13-13l29 0c8 0 14 5 14 13l14 364c0 7-6 13-14 13z m-314 0l29 0c8 0 14-6 14-13l13-364c0-8-6-13-13-13l-30 0c-7 0-13 5-13 13l-14 364c0 7 6 13 14 13z m232 203l-156 0 0 34c0 5 6 11 12 11l132 0c6 0 12-6 12-11l0-34z"
     horiz-adv-x="1000"
     id="glyph3197" /><glyph
     glyph-name="shop_nearby"
     unicode=""
     d="M383 112c29 0 55-26 55-55 0-29-26-55-55-55-29 0-55 26-55 55 0 29 26 55 55 55z m476 531c14 0 26-12 26-25 0-14-12-26-26-26l-60 0-88-426c-2-11-14-19-25-19l0 0-362 0c-13 0-25 12-25 25 0 14 12 26 25 26l342 0 12 56-383 0-59 278 500 0 18 90c2 13 12 23 25 23l80 0z m-232-531c29 0 55-26 55-55 0-29-26-55-55-55-29 0-55 26-55 55 0 29 26 55 55 55z"
     horiz-adv-x="1000"
     id="glyph3199" /><glyph
     glyph-name="shower"
     unicode=""
     d="M479 461l15 0c18 37 49 61 84 71 2 8 8 15 16 19l0 26c0 52-35 88-80 103-18 6-37 10-57 10-19 0-39-4-57-10-43-15-76-49-76-103l0-604-39 0 0 604c0 74 45 119 102 140 21 8 45 12 68 12 24 0 47-4 68-12 59-19 106-68 106-138l0-26c8-4 14-12 16-19 35-10 66-32 84-71l15 0 0-25-267 0 0 25z m226-152c10-18 18-37 18-47 0-10-8-17-18-17-10 0-17 7-17 17 0 10 7 29 17 47z m-21-111c9-18 17-37 17-47 0-10-8-18-17-18-10 0-18 8-18 18 0 10 8 29 18 47z m17 217c10-18 18-38 18-47 0-10-8-18-18-18-10 0-17 8-17 18 0 9 7 29 17 47z m-54-135c9-18 17-37 17-47 0-10-8-18-17-18-10 0-18 8-18 18 0 10 8 29 18 47z m-65-94c10-18 18-37 18-47 0-10-8-17-18-17-10 0-17 7-17 17 0 10 7 29 17 47z m35 197c10-17 18-37 18-47 0-9-8-17-18-17-10 0-17 8-17 17 0 10 7 30 17 47z m-41-78c10-17 18-37 18-47 0-10-8-17-18-17-10 0-17 7-17 17 0 10 7 30 17 47z m-60-70c9-18 17-37 17-47 0-10-8-18-17-18-10 0-18 8-18 18 0 10 8 29 18 47z m19 176c10-18 18-38 18-47 0-10-8-18-18-18-10 0-17 8-17 18 0 9 7 29 17 47z"
     horiz-adv-x="1000"
     id="glyph3201" /><glyph
     glyph-name="tumble_dryer"
     unicode=""
     d="M244 645l512 0c23 0 43-20 43-43l0-592c0-23-18-41-41-43l-51 0 51-10c0-7-8-17-18-17l-58 0c-10 0-18 8-18 17l0 8-379 0 49-8c10-2-8-17-18-17l-58 0c-10 0-18 8-18 17l0 8c-23 0-41 20-41 43l0 592c0 23 20 43 43 43z m242-389c8 4 18 2 22-6 4-7 2-17-6-21-4-2-4-4-6-4 0 0 0-2 0-4 0-2 2-4 4-6 4-4 8-6 10-6 10 0 17 4 23 12 6 6 8 14 8 27 0 8-6 20-14 28-7 6-17 12-31 12-14 0-31-6-41-20-10-12-17-27-17-47 0-15 5-37 21-51 12-11 27-19 51-19 21 0 47 8 64 25 16 14 26 35 28 63 0 0 0 2 0 6 0 33-12 58-32 76-19 17-47 27-74 29 0 0-2 0-6 0-31 0-62-14-86-37-21-22-35-53-35-86 0-41 16-78 41-104 26-27 61-42 98-42 43 0 86 15 117 44 109 86 51 297-125 297-111 0-201-90-201-201 0-111 90-201 201-201 94 0 174 64 195 152-11-27-29-50-48-70-40-35-90-53-139-53-47 0-90 20-121 53-30 31-49 76-49 125 0 43 18 80 45 109 29 30 68 47 107 47 2 0 4 0 6 0 35-2 69-13 94-37 25-23 43-56 43-99 0-2 0-4 0-6-2-37-16-65-35-84-24-24-57-35-86-35-31 0-55 11-72 27-22 21-32 51-32 74 0 29 10 53 26 68 17 20 43 30 66 30 22 0 39-8 53-20 15-13 25-35 25-51 0-21-6-37-15-48-12-14-30-22-47-22-12 0-26 6-34 14-5 6-9 12-11 17-2 8-4 16-2 24 2 10 8 17 19 23z m-78 342l-142 0 0-70 142 0 0 70z m199 0c20 0 36-16 36-35 0-20-16-35-36-35-19 0-35 15-35 35 0 19 16 35 35 35z m104 0c20 0 35-16 35-35 0-20-15-35-35-35-20 0-35 15-35 35 0 19 15 35 35 35z"
     horiz-adv-x="1000"
     id="glyph3203" /><glyph
     glyph-name="washing_machine1"
     unicode=""
     d="M295-23l41-8c0-12-8-17-18-17l-58 0c-10 0-18 7-18 17l0 8c-23 0-41 19-41 43l0 592c0 23 20 43 43 43l512 0c23 0 43-20 43-43l0-592c0-24-18-41-41-43l-43 0 43-8c0-10-8-17-18-17l-58 0c-10 0-18 7-18 17l0 8-369 0z m205 449c111 0 201-90 201-201 0-111-90-201-201-201-111 0-201 90-201 201 0 111 90 201 201 201z m211 180c20 0 35-16 35-35 0-20-15-35-35-35-20 0-35 15-35 35 0 19 15 35 35 35z m-104 0c20 0 36-16 36-35 0-20-16-35-36-35-19 0-35 15-35 35 0 19 16 35 35 35z m-199 0l-142 0 0-70 142 0 0 70z m252-309c4-9 8-21 12-33l-29 0c-10 0-18-8-18-17l0-45c0-10 8-18 18-18l29 0c-12-51-47-96-98-119-88-41-191-2-232 88 219-92 142 219 318 144z"
     horiz-adv-x="1000"
     id="glyph3205" /><glyph
     glyph-name="wc"
     unicode=""
     d="M295 479l92 0c15 0 27-12 27-27l0-219c0-16-12-27-27-27l-92 0c-16 0-27 11-27 27l0 219c0 15 11 27 27 27z m424 129l45-14c-8-25-20-45-35-56-16-12-38-20-63-20-31 0-57 10-76 31-20 22-29 51-29 88 0 39 9 69 29 92 19 21 47 33 80 33 29 0 53-8 70-25 10-10 20-24 24-43l-47-12c-2 12-8 22-18 29-8 8-19 10-31 10-18 0-31-6-43-19-12-12-16-34-16-61 0-29 6-51 16-62 10-12 25-20 41-20 12 0 24 4 33 12 10 8 16 21 20 37z m-426-86l-57 234 49 0 35-160 43 160 57 0 41-164 35 164 47 0-57-234-50 0-47 176-47-176-51 0z m147-316l275 0c8 0 14 5 14 13l0 0c0 8-6 14-14 14l-275 0c-8 0-14-6-14-14l0 0c0-8 6-13 14-13z m-125-10l388 0c8 0 14-6 14-14 0-148-152-133-152-174 0-41 44-35 44-76 0-8-7-14-13-14l-242 0c-8 0-14 6-14 14-4 33 41 55 37 88-8 51-76 39-76 162 0 8 6 14 14 14z"
     horiz-adv-x="1000"
     id="glyph3207" /><glyph
     glyph-name="wifi"
     unicode=""
     d="M477 555c103 6 197-27 273-82 37-27 53-58 86-57 20 2 35 14 41 28 10 19 4 41-8 54-86 90-213 149-344 155-84 4-171-14-240-45-60-29-84-45-131-84-7-8-29-26-33-35-19-41 20-84 63-69 17 6 27 22 39 32 70 58 144 95 252 101z m-2-236c64 10 113-14 154-51 31-29 68-16 82 12 18 35-12 62-35 80-8 6-16 12-24 17-76 49-183 57-265 20-28-14-82-45-96-72-25-47 33-96 74-63 8 6 14 14 22 20 27 19 53 31 90 37z m-49-207c4-39 39-71 82-67 39 4 70 39 66 82-4 39-39 71-82 67-39-4-70-39-66-82z"
     horiz-adv-x="1000"
     id="glyph3209" /></font><font
   id="fontello-5"
   horiz-adv-x="1000"><font-face
     font-family="fontello"
     font-weight="400"
     font-stretch="normal"
     units-per-em="1000"
     ascent="850"
     descent="-150"
     id="font-face3242" /><missing-glyph
     horiz-adv-x="1000"
     id="missing-glyph3244" /><glyph
     glyph-name="chemical_wc"
     unicode=""
     d="M757 731l-71-47-25 39c-10 14-27 18-43 8l-115-76c-14-10-18-28-8-43l25-39-50-34c-29-16-31-19-54-33-28-16-42-25-68-41l-4-3 29-45v0c12 6 13 8 24 15 8 4 28 17 38 23l25-39 66-101c8-14 26-16 39-8l326 215c14 8 16 25 8 39l-105 158c-8 14-26 16-39 8z m-98-65l-111-72-12 18c-6 9-4 21 6 27l76 51c10 6 21 4 27-6l12-18z m-488-474l15-207h614l18 172 3 40 83 1 0 43-271-3-542-3v-22-21z m602-118c-94-64-477 87-561 8l9-74 546-1 9 74z m-178 305l-114 106 26 17 76-74-33 102 29 19 80-72-39 100 25 17 53-144-27-18-86 78 37-109-27-18z m197 196l29 7c6-15 6-31 2-43-4-11-14-23-27-31-18-12-34-13-53-10-18 4-33 16-47 36-14 21-19 41-16 58 4 20 14 33 32 45 15 10 31 14 47 12 9-2 17-6 27-14l-22-23c-5 6-11 8-19 9-8 0-14-1-22-5-9-6-13-14-15-26-2-10 2-23 12-37 9-16 21-25 31-27 10-4 19-2 29 4 6 4 12 9 14 17 2 8 2 16-2 28z"
     horiz-adv-x="1000"
     id="glyph3246" /><glyph
     glyph-name="accessible"
     unicode=""
     d="M660 293l98-232 99 45-15 31-47-17-107 246h-188v47h156v43h-156v48c0 30-23 53-53 53v0c-29 0-52-23-52-53v-138-75h265z m35-179c-11-24-27-45-45-63-43-43-101-68-166-68-64 0-123 25-166 68-43 43-68 102-68 166 0 65 25 123 68 166 10 10 22 20 36 30v-67c-32-33-53-78-53-127 0-51 21-96 53-129 33-33 78-52 128-52 51 0 96 21 129 52 26 26 43 57 49 92l31-64z m-248 607c37 0 67-29 67-66 0-37-30-67-67-67-37 0-66 30-66 67 0 37 29 66 66 66z"
     horiz-adv-x="1000"
     id="glyph3248" /><glyph
     glyph-name="animals_allowed"
     unicode=""
     d="M195 24l0 506 77-102 281 0 158 248 21-84 176-117c59-33 24-152-201-113l0-338-92 0 0 182c-93-30-261-24-336 0l0-182-86 0z m563 510c10 0 17-8 17-18 0-10-7-18-17-18-10 0-18 8-18 18 0 10 8 18 18 18z"
     horiz-adv-x="1000"
     id="glyph3250" /><glyph
     glyph-name="barbeques"
     unicode=""
     d="M600 229l29-135-254 0 27 135c30-14 63-22 98-22 35 0 70 8 100 24z m-106 508c-6 6-8 15-2 23 6 6 16 8 24 2 39-31 23-76 7-127-15-45-31-94-5-138 4-8 2-18-6-22-8-4-18-2-22 6-33 57-13 113 2 164 14 39 26 74 2 92z m63-102c-4 8 0 18 8 22 7 4 17 0 21-8 14-29 6-59 0-84-6-24-12-47 4-65 6-5 4-17-2-23-6-6-18-4-23 2-26 29-18 61-10 92 6 21 11 45 2 64z m-149 37c-6 6-8 16-2 22 6 6 16 8 22 2 33-30 21-71 8-114-10-31-22-64-6-85 6-8 4-18-4-22-8-6-18-4-22 4-23 33-9 74 2 113 10 33 20 65 2 80z m-43-424l-43-205c-25-3-45-27-45-52 0-30 24-55 55-55 29 0 55 23 55 55 0 19-10 35-26 45l6 27 268 0 27-127 41 0-66 314c43 32 74 77 86 129-26 6-71 12-80 16l80 0c11 0 23 10 23 23l0 0c0 12-10 24-23 24l-446 0c-11 0-23-10-23-24l0 0c0-11 8-21 19-23 10-61 45-113 92-147z m172 131c0 10 8 16 16 16 10 0 15-8 15-16l0-45c0-9-7-15-15-15l-110 0c-9 0-15 8-15 15l0 43c0 10 8 16 15 16 10 0 16-8 16-16l0-27 78 0 0 27z m-207-377c-6 0-12-6-12-11 0-6 6-12 12-12 6 0 12 6 12 12 0 5-6 11-12 11z"
     horiz-adv-x="1000"
     id="glyph3252" /><glyph
     glyph-name="caravans_traillers"
     unicode=""
     d="M904 161l-373 0c-4-16-11-28-21-39-16-16-37-26-61-26-23 0-45 10-60 26-16 15-26 37-26 60 0 24 10 45 26 61 15 15 37 25 60 25 24 0 45-10 61-25 12-12 19-26 23-39l20 0 0 224c0 18 13 31 31 31l68 0c18 0 32-13 32-31l0-224 48 0-5 224c0 39-24 69-53 90-45 31-108 45-147 45-86 0-166-39-232-96-76-64-133-154-158-244l0 0c0-2 0-4 0-8 0-4 0-6 2-8l0 0c0-1 2-1 4-1 2 0 4 0 5 0l206 0 0-41-206 0c-5 0-11 0-17 1-14 4-24 12-29 24l0 0c-6 10-6 19-6 27 0 8 2 14 2 20l0 0c27 95 90 193 170 263 74 65 164 106 259 106 47 0 118-16 170-53 39-27 69-68 71-123l5-226 131 0 0-43z m-431 191l-112 0c-5 0-11 6-11 12l0 82c0 6 6 11 11 11l112 0c6 0 11-5 11-11l0-82c0-6-5-12-11-12z m-53-201c8-8 20-12 31-12 12 0 24 4 31 12 8 8 12 19 12 31 0 12-4 24-12 31-7 8-19 12-31 12-11 0-23-4-31-12-8-7-12-19-12-31 0-12 4-23 12-31z"
     horiz-adv-x="1000"
     id="glyph3254" /><glyph
     glyph-name="chairs_table"
     unicode=""
     d="M742 495l-302 226-346-166 301-27-26-264-271 0c0-23 0-47 0-70l31 0 0-213 45 0 0 213 398 0 0-213 45 0 0 213 39 0 0 70-242 0 24 260 302-27z m-336-329l-17-185-45 0 17 185 45 0z m317-60l0-125-45 0 0 125-12 0 0 45 170 0 27 209c16-2 30-4 45-6-11-90-27-156-33-225-4-45 4-91 4-146l-45 0 0 125-111 0z"
     horiz-adv-x="1000"
     id="glyph3256" /><glyph
     glyph-name="fresh_water"
     unicode=""
     d="M450 717l14 7v14h41v-14c7-5 6-4 13-6 115 5 114-78 5-75-11 1-12-6-19-10 0-22-1 18 0-3-7-53 58-36 139-40 48-6 91-23 118-54 29-30 46-71 46-110v0-59h-92v59 0c0 15-7 34-19 46-12 14-29 23-50 23v0h-55c-58 0-57-1-102-1-48 0-41 1-107 1h-50v0c-29 0-45-7-55-19-9-14-14-35-14-61l-2-408h-94l3 408c1 45 10 88 34 118 26 34 66 55 128 55v0c37 2 147-6 137 41-1 20 0-18 0 2-5 3-10 7-16 12-114 1-106 68-3 74z m301-439c41-69 74-152 74-193 0-40-33-73-74-73-40 0-73 33-73 73 0 41 33 122 73 193z"
     horiz-adv-x="1000"
     id="glyph3258" /><glyph
     glyph-name="gray_water"
     unicode=""
     d="M770 157l-16-207-348 0-15 207-301 0 0 45 814 0 0-45-134 0z m-266 54l70 49-33 0 0 174-74 0 0-123-82 0c-4 14-10 23-20 33-13 14-31 22-50 22-20 0-38-8-51-22-14-13-22-31-22-51 0-19 8-37 22-50 13-14 31-22 51-22 19 0 37 8 50 22 8 7 16 19 18 33l84 0 0-16-33 0 70-49z m164 65l-94 0 0 35 94 0 0-35z m-441 0l-67 0c-17 0-29 2-39 8-10 7-23 17-27 35l-43 96-2 3 0 4 4 164c0 18 8 37 21 49 12 12 30 18 51 18l303 0 21 47 4 9 12 0 379 0 2 0 2 0c8-2 17-7 23-13 8-8 12-16 10-26l-6-50 0 0 0-2c-2-8-6-18-12-24-6-6-13-10-25-10l-148 0c-4 0-6-2-8-2 0 0 0 0 0-1 0 0 0 0 0-2 0-2 2-2 6-2l0 0 107 0 12 0 4-10 27-61 94-37 9-6-1-11-12-127c-2-12-4-24-10-34-8-9-20-17-39-17l-57 0c-4-12-9-24-17-33-14-14-32-22-51-22-20 0-37 8-51 22-13 13-21 31-21 50 0 20 8 38 21 51 14 14 31 22 51 22 19 0 37-8 51-22 10-10 15-19 19-33l57 0c8 0 10 2 12 4 2 2 4 8 4 16l9 115-90 35-5 2-2 6-26 54-97 0 0 0c-20 0-34 10-39 24-2 6-4 10-4 16 0 5 2 11 4 15 5 12 19 22 39 22l148 0c0 0 2 2 2 4l6 48c-2 2-4 2-6 4l-363 0-22-47-4-9-11 0-315 0c-12 0-19-4-27-10-6-6-10-16-10-24l-4-160 41-93 0-2c2-10 12-14 14-16 4-2 10-2 19-2l67 0 0-35z m505-8c6-6 16-10 26-10 10 0 19 4 25 10 6 6 10 16 10 25 0 10-4 20-10 26-6 6-15 10-25 10-10 0-20-4-26-10-5-6-9-16-9-26 0-9 4-19 9-25z m-443 0c6-6 16-10 26-10 9 0 19 4 25 10 6 6 10 16 10 25 0 10-4 20-10 26-6 6-16 10-25 10-10 0-20-4-26-10-6-6-10-16-10-26 0-9 4-19 10-25z m217-92c17-31 31-64 31-82 0-17-14-31-31-31-18 0-31 14-31 31 0 18 13 53 31 82z m-74-133c93-64 211 80 295 2l-10-74-279 0-8 72z"
     horiz-adv-x="1000"
     id="glyph3260" /><glyph
     glyph-name="long_vehicles"
     unicode=""
     d="M672 237l-285 0c-4-12-10-24-18-33-13-14-31-22-51-22-19 0-37 8-50 22-14 13-22 31-22 50 0 20 8 37 22 51 13 14 31 22 50 22 20 0 38-8 51-22 10-10 16-19 20-33l285 0 0-35z m-441 0l-67 0c-17 0-29 2-39 8-10 7-23 17-27 35l-43 95-2 4 0 4 4 164c0 18 8 37 21 49 12 12 29 18 51 18l303 0 21 47 4 9 12 0 379 0 2 0 2 0c7-2 17-7 23-13 8-8 12-16 10-26l-6-50 0 0 0-2c-2-8-6-18-12-24-6-6-13-10-25-10l-149 0c-3 0-5-2-7-2 0 0 0 0 0-2 0 0 0 0 0-1 0-2 2-2 5-2l0 0 108 0 12 0 4-10 27-61 94-37 9-6-2-11-11-127c-2-12-4-24-10-34-8-9-20-17-39-17l-57 0c-4-12-10-24-17-33-14-14-32-22-51-22-20 0-37 8-51 22-14 13-21 31-21 50 0 20 7 38 21 51 14 14 31 22 51 22 19 0 37-8 51-22 9-10 15-19 19-33l57 0c8 0 10 2 12 4 1 2 3 8 3 16l10 115-90 35-5 2-2 6-26 54-97 0 0 0c-20 0-34 10-40 24-2 6-3 10-3 15 0 6 1 12 3 16 6 12 20 22 40 22l148 0c0 0 2 2 2 3l6 49c-2 2-4 2-6 4l-363 0-22-47-4-9-11 0-315 0c-12 0-19-4-25-10-6-6-10-16-10-24l-4-160 41-94 0-1c2-10 12-14 14-16 4-2 9-2 19-2l67 0 0-35z m505-8c6-6 16-10 26-10 10 0 19 4 25 10 6 6 10 16 10 25 0 10-4 20-10 26-6 6-15 10-25 10-10 0-20-4-26-10-5-6-9-16-9-26 0-9 4-19 9-25z m-443 0c6-6 16-10 25-10 10 0 20 4 26 10 6 6 10 16 10 25 0 10-4 20-10 26-6 6-16 10-26 10-9 0-19-4-25-10-6-6-10-16-10-26 0-9 4-19 10-25z m70-191c-9 3-15 9-21 15-4 8-6 14-6 24 0 13 6 25 16 35 9 10 23 13 43 13 17 0 31-3 43-13 9-10 15-22 15-35 0-10-2-18-8-24-4-8-11-12-19-15 10-4 17-10 23-18 6-8 8-18 8-27 0-18-6-32-17-43-12-12-26-16-45-16-18 0-32 4-43 14-14 11-20 25-20 45 0 9 2 19 8 29 6 8 14 16 23 19z m8 37c0-8 2-14 6-18 4-4 10-6 16-6 7 0 11 2 15 6 4 4 6 10 6 18 0 7-2 11-6 15-4 4-10 6-15 6-8 0-12-2-18-6-4-4-6-9-6-15z m-4-82c0-10 2-18 8-24 6-6 12-8 20-8 7 0 13 2 19 8 6 6 8 14 8 24 0 9-2 15-8 21-6 6-12 8-19 8-10 0-16-4-20-10-4-6-6-14-6-19z m100 80l33 0 0-20c12 14 25 22 43 22 10 0 16-2 23-6 6-4 12-10 16-16 6 8 12 14 20 16 7 4 13 6 21 6 10 0 20-2 25-6 8-4 12-10 16-18 2-6 4-15 4-29l0-88-37 0 0 78c0 14-2 24-4 28-4 5-8 7-16 7-5 0-9-2-13-4-4-3-8-7-10-13-2-6-4-16-4-30l0-66-37 0 0 76c0 14 0 22-2 26-2 4-4 5-6 7-2 2-6 2-12 2-5 0-9-2-15-4-4-3-8-7-10-13-2-6-2-16-2-30l0-66-37 0 0 139z m-363-49l183 0 0-33-183 0 0-30-51 45 51 45 0-29z m847-16l-51-45 0 30-181 0 0 33 181 0 0 29 51-45z"
     horiz-adv-x="1000"
     id="glyph3262" /><glyph
     glyph-name="playground"
     unicode=""
     d="M357-17l43 543c-19 19-43 33-70 41l-70 0-12-121 139 0 0-28-141 0-14-134 143 0 0-28-144 0-14-134 146 0 0-28-148 0-12-113-39 0 65 641c3 48 31 78 60 89 12 4 24 6 35 6 12 0 24-4 33-10 24-13 41-41 38-78l-4-27 15 0 2 23c4 49 30 79 61 90 12 4 23 6 37 6 12 0 23-4 35-10 25-13 41-41 37-78l-6-41c53-33 88-125 125-224 51-135 108-286 215-315 8-2 14-8 14-15 0-10-8-16-16-16l-17 0 0-31-36 0 0 31-140 0 0-31-35 0 0 31-12 0 0 0c-2 0-2 0-4 0-82 21-111 129-144 246-22 78-45 162-84 223l-40-502-39 0z m176 615l4 33c2 20-6 35-17 41-6 4-12 6-18 6-6 0-14 0-20-2-17-6-33-25-35-56l-2-20 30 0 50 0c2 0 6 0 8 0z m-269 0l15 0 20 0c12 0 19 0 27 0l28 0 3 33c2 20-5 35-17 41-6 4-12 4-18 6-6 0-13 0-19-2-18-6-33-25-37-56l-2-20z"
     horiz-adv-x="1000"
     id="glyph3264" /><glyph
     glyph-name="power_hook"
     unicode=""
     d="M533 497l0-106c0-72-60-133-133-133l-23 0 0-135c0-39 27-64 63-76 15-6 31-7 46-7 16 0 34 1 47 7 35 12 61 37 61 76l0 243c0 68 35 113 78 132 18 8 35 12 55 12l0 0c17 0 37-4 54-12 43-19 78-64 78-132l0-321-56 0 0 321c0 43-20 68-45 80-10 4-20 6-31 6l0 0c-10 0-22-2-32-6-25-12-45-37-45-80l0-243c0-68-44-111-99-130-20-6-43-10-65-10-21 0-45 4-64 10-57 19-102 62-102 130l0 135-23 0c-72 0-133 61-133 133l0 106-6 0c-8 0-15 7-15 15l0 35c0 8 7 16 15 16l71 0 0 131c0 13 11 25 25 25l0 0c14 0 25-12 25-25l0-131 143 0 0 131c0 13 12 25 25 25l0 0c14 0 26-12 26-25l0-131 70 0c8 0 16-8 16-16l0-35c0-8-8-15-16-15l-6 0z"
     horiz-adv-x="1000"
     id="glyph3266" /><glyph
     glyph-name="reservations"
     unicode=""
     d="M191 504l631 0 0 43c0 8-4 16-9 22-6 6-14 10-22 10l-72 0 0 50 72 0c24 0 43-9 59-23 15-16 23-35 23-59l0-170 51 67 16-20-209-340-122 141 53 35 72-70 90 119 0 143-631 0 0-366c0-7 4-15 10-21l0 0c6-6 14-10 22-10l568 0c8 0 16 4 22 10l0 0c5 6 9 14 9 21l0 84 51 94 0-178c0-23-10-43-23-58l0 0c-16-16-36-24-59-24l-568 0c-24 0-43 10-59 24l0 0c-16 15-23 35-23 58l0 461c0 24 9 43 23 59 16 16 35 23 59 23l103 0 0 65 51 0 0-160-51 0 0 43-103 0c-8 0-16-4-22-10-6-6-10-14-10-22l0-43z m227 125l205 0 0 65 51 0 0-160-51 0 0 43-205 0 0 50z m250-240l107 0 0-92-107 0 0 92z m-145 0l108 0 0-92-108 0 0 92z m-144-164l107 0 0-92-107 0 0 92z m0 164l107 0 0-92-107 0 0 92z m-145-164l108 0 0-92-108 0 0 92z m0 164l108 0 0-92-108 0 0 92z"
     horiz-adv-x="1000"
     id="glyph3268" /><glyph
     glyph-name="rubbish"
     unicode=""
     d="M410 713l178 0c16 0 29-13 29-29l0-53 88 0c53 0 98-43 98-97l0 0-610 0 0 0c0 52 43 97 98 97l88 0 0 53c0 16 14 29 29 29z m-160-203l498 0-27-476c-2-26-22-47-47-47l-352 0c-25 0-45 21-47 47l-27 476z m231-82l39 0c7 0 13-6 13-13l0-366c0-8-6-13-13-13l-39 0c-8 0-14 5-14 13l0 366c0 7 6 13 14 13z m181 0l-29 0c-8 0-14-6-14-13l-13-364c0-8 5-13 13-13l29 0c8 0 14 5 14 13l14 364c0 7-6 13-14 13z m-314 0l29 0c8 0 14-6 14-13l13-364c0-8-6-13-13-13l-30 0c-7 0-13 5-13 13l-14 364c0 7 6 13 14 13z m232 203l-156 0 0 34c0 5 6 11 12 11l132 0c6 0 12-6 12-11l0-34z"
     horiz-adv-x="1000"
     id="glyph3270" /><glyph
     glyph-name="shop_nearby"
     unicode=""
     d="M383 112c29 0 55-26 55-55 0-29-26-55-55-55-29 0-55 26-55 55 0 29 26 55 55 55z m476 531c14 0 26-12 26-25 0-14-12-26-26-26l-60 0-88-426c-2-11-14-19-25-19l0 0-362 0c-13 0-25 12-25 25 0 14 12 26 25 26l342 0 12 56-383 0-59 278 500 0 18 90c2 13 12 23 25 23l80 0z m-232-531c29 0 55-26 55-55 0-29-26-55-55-55-29 0-55 26-55 55 0 29 26 55 55 55z"
     horiz-adv-x="1000"
     id="glyph3272" /><glyph
     glyph-name="shower"
     unicode=""
     d="M479 461l15 0c18 37 49 61 84 71 2 8 8 15 16 19l0 26c0 52-35 88-80 103-18 6-37 10-57 10-19 0-39-4-57-10-43-15-76-49-76-103l0-604-39 0 0 604c0 74 45 119 102 140 21 8 45 12 68 12 24 0 47-4 68-12 59-19 106-68 106-138l0-26c8-4 14-12 16-19 35-10 66-32 84-71l15 0 0-25-267 0 0 25z m226-152c10-18 18-37 18-47 0-10-8-17-18-17-10 0-17 7-17 17 0 10 7 29 17 47z m-21-111c9-18 17-37 17-47 0-10-8-18-17-18-10 0-18 8-18 18 0 10 8 29 18 47z m17 217c10-18 18-38 18-47 0-10-8-18-18-18-10 0-17 8-17 18 0 9 7 29 17 47z m-54-135c9-18 17-37 17-47 0-10-8-18-17-18-10 0-18 8-18 18 0 10 8 29 18 47z m-65-94c10-18 18-37 18-47 0-10-8-17-18-17-10 0-17 7-17 17 0 10 7 29 17 47z m35 197c10-17 18-37 18-47 0-9-8-17-18-17-10 0-17 8-17 17 0 10 7 30 17 47z m-41-78c10-17 18-37 18-47 0-10-8-17-18-17-10 0-17 7-17 17 0 10 7 30 17 47z m-60-70c9-18 17-37 17-47 0-10-8-18-17-18-10 0-18 8-18 18 0 10 8 29 18 47z m19 176c10-18 18-38 18-47 0-10-8-18-18-18-10 0-17 8-17 18 0 9 7 29 17 47z"
     horiz-adv-x="1000"
     id="glyph3274" /><glyph
     glyph-name="tumble_dryer"
     unicode=""
     d="M244 645l512 0c23 0 43-20 43-43l0-592c0-23-18-41-41-43l-51 0 51-10c0-7-8-17-18-17l-58 0c-10 0-18 8-18 17l0 8-379 0 49-8c10-2-8-17-18-17l-58 0c-10 0-18 8-18 17l0 8c-23 0-41 20-41 43l0 592c0 23 20 43 43 43z m242-389c8 4 18 2 22-6 4-7 2-17-6-21-4-2-4-4-6-4 0 0 0-2 0-4 0-2 2-4 4-6 4-4 8-6 10-6 10 0 17 4 23 12 6 6 8 14 8 27 0 8-6 20-14 28-7 6-17 12-31 12-14 0-31-6-41-20-10-12-17-27-17-47 0-15 5-37 21-51 12-11 27-19 51-19 21 0 47 8 64 25 16 14 26 35 28 63 0 0 0 2 0 6 0 33-12 58-32 76-19 17-47 27-74 29 0 0-2 0-6 0-31 0-62-14-86-37-21-22-35-53-35-86 0-41 16-78 41-104 26-27 61-42 98-42 43 0 86 15 117 44 109 86 51 297-125 297-111 0-201-90-201-201 0-111 90-201 201-201 94 0 174 64 195 152-11-27-29-50-48-70-40-35-90-53-139-53-47 0-90 20-121 53-30 31-49 76-49 125 0 43 18 80 45 109 29 30 68 47 107 47 2 0 4 0 6 0 35-2 69-13 94-37 25-23 43-56 43-99 0-2 0-4 0-6-2-37-16-65-35-84-24-24-57-35-86-35-31 0-55 11-72 27-22 21-32 51-32 74 0 29 10 53 26 68 17 20 43 30 66 30 22 0 39-8 53-20 15-13 25-35 25-51 0-21-6-37-15-48-12-14-30-22-47-22-12 0-26 6-34 14-5 6-9 12-11 17-2 8-4 16-2 24 2 10 8 17 19 23z m-78 342l-142 0 0-70 142 0 0 70z m199 0c20 0 36-16 36-35 0-20-16-35-36-35-19 0-35 15-35 35 0 19 16 35 35 35z m104 0c20 0 35-16 35-35 0-20-15-35-35-35-20 0-35 15-35 35 0 19 15 35 35 35z"
     horiz-adv-x="1000"
     id="glyph3276" /><glyph
     glyph-name="washing_machine1"
     unicode=""
     d="M295-23l41-8c0-12-8-17-18-17l-58 0c-10 0-18 7-18 17l0 8c-23 0-41 19-41 43l0 592c0 23 20 43 43 43l512 0c23 0 43-20 43-43l0-592c0-24-18-41-41-43l-43 0 43-8c0-10-8-17-18-17l-58 0c-10 0-18 7-18 17l0 8-369 0z m205 449c111 0 201-90 201-201 0-111-90-201-201-201-111 0-201 90-201 201 0 111 90 201 201 201z m211 180c20 0 35-16 35-35 0-20-15-35-35-35-20 0-35 15-35 35 0 19 15 35 35 35z m-104 0c20 0 36-16 36-35 0-20-16-35-36-35-19 0-35 15-35 35 0 19 16 35 35 35z m-199 0l-142 0 0-70 142 0 0 70z m252-309c4-9 8-21 12-33l-29 0c-10 0-18-8-18-17l0-45c0-10 8-18 18-18l29 0c-12-51-47-96-98-119-88-41-191-2-232 88 219-92 142 219 318 144z"
     horiz-adv-x="1000"
     id="glyph3278" /><glyph
     glyph-name="wc"
     unicode=""
     d="M295 479l92 0c15 0 27-12 27-27l0-219c0-16-12-27-27-27l-92 0c-16 0-27 11-27 27l0 219c0 15 11 27 27 27z m424 129l45-14c-8-25-20-45-35-56-16-12-38-20-63-20-31 0-57 10-76 31-20 22-29 51-29 88 0 39 9 69 29 92 19 21 47 33 80 33 29 0 53-8 70-25 10-10 20-24 24-43l-47-12c-2 12-8 22-18 29-8 8-19 10-31 10-18 0-31-6-43-19-12-12-16-34-16-61 0-29 6-51 16-62 10-12 25-20 41-20 12 0 24 4 33 12 10 8 16 21 20 37z m-426-86l-57 234 49 0 35-160 43 160 57 0 41-164 35 164 47 0-57-234-50 0-47 176-47-176-51 0z m147-316l275 0c8 0 14 5 14 13l0 0c0 8-6 14-14 14l-275 0c-8 0-14-6-14-14l0 0c0-8 6-13 14-13z m-125-10l388 0c8 0 14-6 14-14 0-148-152-133-152-174 0-41 44-35 44-76 0-8-7-14-13-14l-242 0c-8 0-14 6-14 14-4 33 41 55 37 88-8 51-76 39-76 162 0 8 6 14 14 14z"
     horiz-adv-x="1000"
     id="glyph3280" /><glyph
     glyph-name="wifi"
     unicode=""
     d="M477 555c103 6 197-27 273-82 37-27 53-58 86-57 20 2 35 14 41 28 10 19 4 41-8 54-86 90-213 149-344 155-84 4-171-14-240-45-60-29-84-45-131-84-7-8-29-26-33-35-19-41 20-84 63-69 17 6 27 22 39 32 70 58 144 95 252 101z m-2-236c64 10 113-14 154-51 31-29 68-16 82 12 18 35-12 62-35 80-8 6-16 12-24 17-76 49-183 57-265 20-28-14-82-45-96-72-25-47 33-96 74-63 8 6 14 14 22 20 27 19 53 31 90 37z m-49-207c4-39 39-71 82-67 39 4 70 39 66 82-4 39-39 71-82 67-39-4-70-39-66-82z"
     horiz-adv-x="1000"
     id="glyph3282" /></font>
</defs>
</svg>
